Плащ и Кинжал (Сезон 1, Серия 5) / Cloak & Dagger (2018) WEBDL 720p
Релиз группы NewStudio.TV



Сериал: Плащ и Кинжал / Cloak & Dagger
Сезон: 1, Серия: 5
Название серии: Princeton Offense
Русскоязычное название: Принстонское правонарушение

Информация о сериале
Год выхода: 2018
Жанр: Фантастика, боевик, драма, приключения
Режиссер: Алекс Гарсиа Лопес, Питер Хор
В ролях: Оливия Холт, Обри Джозеф, Глория Рубен, Андреа Рот, Майлз Массенден, Дж.Д. Эвермор

О фильме:
Два подростка обнаруживают у себя новые суперспособности — Тэнди может излучать световые кинжалы, а Тайрон способен облачать людей во тьму. Они быстро понимают, что вместе им лучше, чем порознь, но их чувства друг к другу делают сложный мир еще более запутанным.

Над релизом работали:
Озвучка: Многоголосое профессиональное закадровое озвучание (NewStudio)
Перевод: Агата Клинцова

IMDb

При поддержке:



Выпущено: США, Freeform
Продолжительность: 00:45:00

Файл
Формат: MKV
Качество: WEBDL 720p
Видео: ~4000 kb/s, 1280x720
Звук: Русский / Оригинал: AC3, 384 kb/s

Релиз группы

Cloak.&.Dagger.s01e05.WEBDL.720p.NewStudio.TV.mkv.torrent  
 ЗОЛОТАЯ РАЗДАЧА! СКАЧАННОЕ НЕ ЗАСЧИТЫВАЕТСЯ! 
Торрент: Зарегистрирован [ 2018-07-03 20:57 ] 60 KB
Статус: не проверено
Размер: 760 MB
Bospik

Стаж: 1 год 1 месяц

Сообщений: 2

Откуда: Украина

16-Июл-2018 00:24 (спустя 12 дней)
Что-то эта серия не совсем нормально кодирована, так как и размер на 30% меньше, чем у других серий, и хронометраж что-то не совсем адекватный 18 h 53 min.
bl
Pot Player после просмотра 3-5 мин. самопроизвольно переключается на другую серию !!!
4-я серия (с этой и всеми предыдущими проблем нет)
General
Unique ID : 206920472516427377363213677178669897325 (0x9BAB6EF4210C536B8E1D393B6AA6166D)
Complete name : Cloak.&.Dagger.s01e04.WEBDL.720p.NewStudio.TV.mkv
Format : Matroska
Format version : Version 4 / Version 2
File size : 1 001 MiB
Duration : 42 min 3 s
Overall bit rate : 3 329 kb/s

Encoded date : UTC 2018-06-25 18:36:53
Writing application : mkvmerge v6.7.0 ('Back to the Ground') 32bit built on Jan 8 2014 15:03:17
Writing library : libebml v1.3.0 + libmatroska v1.4.1

Video
ID : 1
Format : AVC
Format/Info : Advanced Video Codec
Format profile : High@L3.1
Format settings : CABAC / 5 Ref Frames
Format settings, CABAC : Yes
Format settings, ReFrames : 5 frames
Codec ID : V_MPEG4/ISO/AVC
Duration : 42 min 3 s
Bit rate : 2 238 kb/s
Width : 1 280 pixels
Height : 720 pixels
Display aspect ratio : 16:9
Frame rate mode : Constant
Frame rate : 23.976 (24000/1001) FPS
Color space : YUV
Chroma subsampling : 4:2:0
Bit depth : 8 bits
Scan type : Progressive
Bits/(Pixel*Frame) : 0.101
Stream size : 673 MiB (67%)
Default : Yes
Forced : No
Color range : Limited
Color primaries : BT.709
Transfer characteristics : BT.709
Matrix coefficients : BT.709

Audio #1
ID : 2
Format : AC-3
Format/Info : Audio Coding 3
Codec ID : A_AC3
Duration : 42 min 3 s
Bit rate mode : Constant
Bit rate : 384 kb/s
Channel(s) : 6 channels
Channel positions : Front: L C R, Side: L R, LFE
Sampling rate : 48.0 kHz
Frame rate : 31.250 FPS (1536 SPF)
Bit depth : 16 bits
Compression mode : Lossy
Stream size : 116 MiB (12%)
Language : Russian
Service kind : Complete Main
Default : Yes
Forced : Yes

Audio #2
ID : 3
Format : E-AC-3
Format/Info : Enhanced Audio Coding 3
Codec ID : A_EAC3
Duration : 42 min 3 s
Bit rate mode : Constant
Bit rate : 640 kb/s
Channel(s) : 6 channels
Channel positions : Front: L C R, Side: L R, LFE
Sampling rate : 48.0 kHz
Frame rate : 187.500 FPS (256 SPF)
Compression mode : Lossy
Stream size : 193 MiB (19%)
Language : English
Service kind : Complete Main
Default : No
Forced : No

Text
ID : 4
Format : ASS
Codec ID : S_TEXT/ASS
Codec ID/Info : Advanced Sub Station Alpha
Compression mode : Lossless
Language : Russian
Default : Yes
Forced : Yes
5-я серия (???)
General
Unique ID : 238829308474958148428742908212738582225 (0xB3ACDA07A13BE2928DA981F2F6B0E6D1)
Complete name : Cloak.&.Dagger.s01e05.WEBDL.720p.NewStudio.TV.mkv
Format : Matroska
Format version : Version 4 / Version 2
File size : 760 MiB
Duration : 18 h 53 min
Overall bit rate : 93.8 kb/s

Encoded date : UTC 2018-07-03 13:30:41
Writing application : mkvmerge v6.7.0 ('Back to the Ground') 32bit built on Jan 8 2014 15:03:17
Writing library : libebml v1.3.0 + libmatroska v1.4.1

Video
ID : 1
Format : AVC
Format/Info : Advanced Video Codec
Format profile : High@L3.1
Format settings : CABAC / 5 Ref Frames
Format settings, CABAC : Yes
Format settings, ReFrames : 5 frames
Codec ID : V_MPEG4/ISO/AVC
Duration : 18 h 53 min
Width : 1 280 pixels
Height : 720 pixels
Display aspect ratio : 16:9
Frame rate mode : Constant
Frame rate : 23.976 (24000/1001) FPS
Color space : YUV
Chroma subsampling : 4:2:0
Bit depth : 8 bits
Scan type : Progressive
Default : Yes
Forced : No
Color range : Limited
Color primaries : BT.709
Transfer characteristics : BT.709
Matrix coefficients : BT.709

Audio #1
ID : 2
Format : AC-3
Format/Info : Audio Coding 3
Codec ID : A_AC3
Duration : 18 h 53 min
Bit rate mode : Constant
Bit rate : 384 kb/s
Channel(s) : 6 channels
Channel positions : Front: L C R, Side: L R, LFE
Sampling rate : 48.0 kHz
Frame rate : 31.250 FPS (1536 SPF)
Bit depth : 16 bits
Compression mode : Lossy
Stream size : 3.04 GiB
Language : Russian
Service kind : Complete Main
Default : Yes
Forced : Yes

Audio #2
ID : 3
Format : E-AC-3
Format/Info : Enhanced Audio Coding 3
Codec ID : A_EAC3
Duration : 18 h 53 min
Bit rate mode : Constant
Bit rate : 640 kb/s
Channel(s) : 6 channels
Channel positions : Front: L C R, Side: L R, LFE
Sampling rate : 48.0 kHz
Frame rate : 187.500 FPS (256 SPF)
Compression mode : Lossy
Stream size : 5.07 GiB
Language : English
Service kind : Complete Main
Default : No
Forced : No

Text
ID : 4
Format : ASS
Codec ID : S_TEXT/ASS
Codec ID/Info : Advanced Sub Station Alpha
Compression mode : Lossless
Language : Russian
Default : Yes
Forced : Yes
Показать сообщения

Вы не можете начинать темы
Вы не можете отвечать на сообщения
Вы не можете редактировать свои сообщения
Вы не можете удалять свои сообщения
Вы не можете голосовать в опросах
Вы не можете прикреплять файлы к сообщениям
Вы можете скачивать файлы
П
С